<?xml version="1.0" standalone="no"?>
<!DOCTYPE svg PUBLIC "-//W3C//DTD SVG 1.1//EN" "http://www.w3.org/Graphics/SVG/1.1/DTD/svg11.dtd" >
<!--
2013-9-30: Created.
-->
<svg>
<metadata>
Created by iconfont
</metadata>
<defs>

<font id="iconfont" horiz-adv-x="1024" >
  <font-face
    font-family="iconfont"
    font-weight="500"
    font-stretch="normal"
    units-per-em="1024"
    ascent="896"
    descent="-128"
  />
    <missing-glyph />
    
    <glyph glyph-name="publish" unicode="&#59315;" d="M832 832H192c-17.7 0-32-14.3-32-32v-832c0-17.7 14.3-32 32-32h640c17.7 0 32 14.3 32 32V800c0 17.7-14.3 32-32 32z m-260-72h96v-209.9L621.5 584 572 548.6V760z m220-752H232V760h280v-296.9c0-3.3 1-6.6 3-9.3 5.1-7.2 15.1-8.9 22.3-3.7l83.8 59.9 81.4-59.4c2.7-2 6-3.1 9.4-3.1 8.8 0 16 7.2 16 16V760h64v-752z"  horiz-adv-x="1024" />

    
    <glyph glyph-name="resume" unicode="&#59317;" d="M688 632c0 4.4-3.6 8-8 8H296c-4.4 0-8-3.6-8-8v-48c0-4.4 3.6-8 8-8h384c4.4 0 8 3.6 8 8v48zM680 496H296c-4.4 0-8-3.6-8-8v-48c0-4.4 3.6-8 8-8h384c4.4 0 8 3.6 8 8v48c0 4.4-3.6 8-8 8zM480 352H296c-4.4 0-8-3.6-8-8v-48c0-4.4 3.6-8 8-8h184c4.4 0 8 3.6 8 8v48c0 4.4-3.6 8-8 8zM432 44H208V748h560v-344c0-4.4 3.6-8 8-8h56c4.4 0 8 3.6 8 8V788c0 17.7-14.3 32-32 32H168c-17.7 0-32-14.3-32-32v-784c0-17.7 14.3-32 32-32h264c4.4 0 8 3.6 8 8v56c0 4.4-3.6 8-8 8zM788.8 118.39999999999998c29 26.3 47.2 64.3 47.2 106.6 0 79.5-64.5 144-144 144s-144-64.5-144-144c0-42.3 18.2-80.3 47.2-106.6-57-32.5-96.2-92.7-99.2-162.1-0.2-4.5 3.5-8.3 8-8.3h48.1c4.2 0 7.7 3.3 8 7.6C564 24.799999999999955 621.7 80 692 80s128-55.2 131.9-124.4c0.2-4.2 3.7-7.6 8-7.6H880c4.6 0 8.2 3.8 8 8.3-2.9 69.5-42.2 129.6-99.2 162.1zM692 305c44.2 0 80-35.8 80-80s-35.8-80-80-80-80 35.8-80 80 35.8 80 80 80z"  horiz-adv-x="1024" />

    
    <glyph glyph-name="trophy" unicode="&#59332;" d="M868 736h-92v40c0 4.4-3.6 8-8 8H256c-4.4 0-8-3.6-8-8v-40h-92c-24.3 0-44-19.7-44-44v-148c0-81.7 60-149.6 138.2-162C265.7 265.8 359 174.3 476 161.5v-105.2H280c-17.7 0-32-14.3-32-32V-8c0-4.4 3.6-8 8-8h512c4.4 0 8 3.6 8 8v32.3c0 17.7-14.3 32-32 32H548V161.5C665 174.3 758.3 265.8 773.8 382 852 394.4 912 462.3 912 544V692c0 24.3-19.7 44-44 44zM184 544V664h64v-207.6c-37.1 11.8-64 46.6-64 87.6z m520-128c0-49.1-19.1-95.4-53.9-130.1-34.8-34.8-81-53.9-130.1-53.9h-16c-49.1 0-95.4 19.1-130.1 53.9-34.8 34.8-53.9 81-53.9 130.1V712h384v-296z m136 128c0-41-26.9-75.8-64-87.6V664h64v-120z"  horiz-adv-x="1024" />

    
    <glyph glyph-name="category" unicode="&#59345;" d="M880 597.6H521L403.7 709.8c-1.5 1.4-3.5 2.2-5.5 2.2H144c-17.7 0-32-14.3-32-32v-592c0-17.7 14.3-32 32-32h736c17.7 0 32 14.3 32 32V565.6c0 17.7-14.3 32-32 32zM840 128H184V640h188.5l119.6-114.4H840V128z"  horiz-adv-x="1024" />

    
    <glyph glyph-name="gallery" unicode="&#59351;" d="M864 648H728l-32.4 90.8C691 751.5 679 760 665.4 760H358.6c-13.5 0-25.6-8.5-30.1-21.2L296 648H160c-44.2 0-80-35.8-80-80v-456c0-44.2 35.8-80 80-80h704c44.2 0 80 35.8 80 80V568c0 44.2-35.8 80-80 80z m8-536c0-4.4-3.6-8-8-8H160c-4.4 0-8 3.6-8 8V568c0 4.4 3.6 8 8 8h186.7l17.1 47.8 22.9 64.2h250.5l22.9-64.2 17.1-47.8H864c4.4 0 8-3.6 8-8v-456zM512 512c-88.4 0-160-71.6-160-160s71.6-160 160-160 160 71.6 160 160-71.6 160-160 160z m0-256c-53 0-96 43-96 96s43 96 96 96 96-43 96-96-43-96-96-96z"  horiz-adv-x="1024" />

    
    <glyph glyph-name="blog" unicode="&#59352;" d="M928 735H699.2c-49.1 0-97.1-14.1-138.4-40.7L512 663l-48.8 31.3C422 720.9 373.9 735 324.8 735H96c-17.7 0-32-14.3-32-32v-568c0-17.7 14.3-32 32-32h228.8c49.1 0 97.1-14.1 138.4-40.7l44.4-28.6c1.3-0.8 2.8-1.3 4.3-1.3s3 0.4 4.3 1.3l44.4 28.6C602 88.89999999999998 650.1 103 699.2 103H928c17.7 0 32 14.3 32 32V703c0 17.7-14.3 32-32 32zM324.8 175H136V663h188.8c35.4 0 69.8-10.1 99.5-29.2l48.8-31.3 6.9-4.5v-462c-47.6 25.6-100.8 39-155.2 39z m563.2 0H699.2c-54.4 0-107.6-13.4-155.2-39V598l6.9 4.5 48.8 31.3c29.7 19.1 64.1 29.2 99.5 29.2H888v-488zM396.9 535H211.1c-3.9 0-7.1-3.4-7.1-7.5v-45c0-4.1 3.2-7.5 7.1-7.5h185.7c3.9 0 7.1 3.4 7.1 7.5v45c0.1 4.1-3.1 7.5-7 7.5zM620 527.5v-45c0-4.1 3.2-7.5 7.1-7.5h185.7c3.9 0 7.1 3.4 7.1 7.5v45c0 4.1-3.2 7.5-7.1 7.5H627.1c-3.9 0-7.1-3.4-7.1-7.5zM396.9 395H211.1c-3.9 0-7.1-3.4-7.1-7.5v-45c0-4.1 3.2-7.5 7.1-7.5h185.7c3.9 0 7.1 3.4 7.1 7.5v45c0.1 4.1-3.1 7.5-7 7.5zM812.9 395H627.1c-3.9 0-7.1-3.4-7.1-7.5v-45c0-4.1 3.2-7.5 7.1-7.5h185.7c3.9 0 7.1 3.4 7.1 7.5v45c0.1 4.1-3.1 7.5-7 7.5z"  horiz-adv-x="1024" />

    
    <glyph glyph-name="rss" unicode="&#59360;" d="M723 275.5C666.8 324.4 593.4 354 513 354s-153.8-29.6-210.1-78.6c-3.2-2.8-3.6-7.8-0.8-11.2l36-42.9c2.9-3.4 8-3.8 11.4-0.9C393.1 258.79999999999995 450.3 282 513 282s119.9-23.2 163.5-61.5c3.4-2.9 8.5-2.5 11.4 0.9l36 42.9c2.8 3.3 2.4 8.3-0.9 11.2zM840.4 415.6C751.7 489.5 637.6 534 513 534s-238.7-44.5-327.5-118.4c-3.4-2.8-3.8-7.9-1-11.3l36-42.9c2.8-3.4 7.9-3.8 11.2-1C308 423.8 406.1 462 513 462s205-38.2 281.2-101.6c3.4-2.8 8.4-2.4 11.2 1l36 42.9c2.8 3.4 2.4 8.5-1 11.3zM957.1 554.6C835.7 654.2 680.3 714 511 714c-168.2 0-322.6-59-443.7-157.4-3.5-2.8-4-7.9-1.1-11.4l36-42.9c2.8-3.3 7.8-3.8 11.1-1.1C222 589.3 360.3 642 511 642c151.8 0 291-53.5 400-142.7 3.4-2.8 8.4-2.3 11.2 1.1l36 42.9c2.9 3.4 2.4 8.5-1.1 11.3zM512 118m-64 0a64 64 0 1 1 128 0 64 64 0 1 1-128 0Z"  horiz-adv-x="1024" />

    
    <glyph glyph-name="link" unicode="&#59362;" d="M574 230.6c-3.1 3.1-8.2 3.1-11.3 0L446.5 114.4c-53.8-53.8-144.6-59.5-204 0-59.5 59.5-53.8 150.2 0 204l116.2 116.2c3.1 3.1 3.1 8.2 0 11.3l-39.8 39.8c-3.1 3.1-8.2 3.1-11.3 0L191.4 369.5c-84.6-84.6-84.6-221.5 0-306s221.5-84.6 306 0l116.2 116.2c3.1 3.1 3.1 8.2 0 11.3L574 230.6zM832.6 704.6c-84.6 84.6-221.5 84.6-306 0L410.3 588.4c-3.1-3.1-3.1-8.2 0-11.3l39.7-39.7c3.1-3.1 8.2-3.1 11.3 0l116.2 116.2c53.8 53.8 144.6 59.5 204 0 59.5-59.5 53.8-150.2 0-204L665.3 333.4c-3.1-3.1-3.1-8.2 0-11.3l39.8-39.8c3.1-3.1 8.2-3.1 11.3 0l116.2 116.2c84.5 84.6 84.5 221.5 0 306.1zM610.1 523.7c-3.1 3.1-8.2 3.1-11.3 0L372.3 297.3c-3.1-3.1-3.1-8.2 0-11.3l39.6-39.6c3.1-3.1 8.2-3.1 11.3 0l226.4 226.4c3.1 3.1 3.1 8.2 0 11.3l-39.5 39.6z"  horiz-adv-x="1024" />

    
    <glyph glyph-name="tags" unicode="&#59365;" d="M483.2 105.7L861.4 484c1.7 1.7 2.5 4 2.3 6.3l-25.5 301.4c-0.7 7.8-6.8 13.9-14.6 14.6L522.2 831.7c-2.3 0.2-4.7-0.6-6.3-2.3L137.7 451.2c-3.1-3.1-3.1-8.2 0-11.3l334.2-334.2c3.1-3.2 8.2-3.2 11.3 0z m62.6 651.7l224.6-19 19-224.6L477.5 202 233.9 445.5l311.9 311.9zM605.958852 571.173768a48 48 0 1 1 67.881066 67.883435 48 48 0 1 1-67.881066-67.883435ZM889.7 356.2l-39.6 39.5c-3.1 3.1-8.2 3.1-11.3 0l-362-361.3-237.6 237c-3.1 3.1-8.2 3.1-11.3 0l-39.6-39.5c-3.1-3.1-3.1-8.2 0-11.3l243.2-242.8 39.6-39.5c3.1-3.1 8.2-3.1 11.3 0l407.3 406.6c3.1 3.1 3.1 8.2 0 11.3z"  horiz-adv-x="1024" />

    
    <glyph glyph-name="alipay" unicode="&#59516;" d="M789 285.7c-38.7 12.9-90.7 32.7-148.5 53.6 34.8 60.3 62.5 129 80.7 203.6H530.5v68.6h233.6v38.3H530.5V764h-95.4c-16.7 0-16.7-16.5-16.7-16.5v-97.8H182.2v-38.3h236.3v-68.6H223.4v-38.3h378.4c-13.8-47.6-32.4-92.3-54.5-132.9-122.8 40.4-253.8 73.2-336.1 53-52.6-13-86.5-36.1-106.5-60.3-91.4-111-25.9-279.6 167.2-279.6C386 84.8 496 148.4 581.2 253 708.3 192 960 87.3 960 87.3V236.6s-31.6 2.5-171 49.1zM253.9 149.4c-150.5 0-195 118.3-120.6 183.1 24.8 21.9 70.2 32.6 94.4 35 89.4 8.8 172.2-25.2 269.9-72.8-68.8-89.5-156.3-145.3-243.7-145.3z"  horiz-adv-x="1024" />

    
    <glyph glyph-name="zhihu" unicode="&#59517;" d="M564.7 665.9V93h60l25.2-71.4L756.3 93h131.5V665.9H564.7z m247.7-497h-59.9l-75.1-50.4-17.8 50.4h-18V587.7h170.7v-418.8zM526.1 409.1H393.3c2.1 44.9 4.3 104.3 6.6 172.9h130.9l-0.1 8.1c0 0.6-0.2 14.7-2.3 29.1-2.1 15-6.6 34.9-21 34.9H287.8c4.4 20.6 15.7 69.7 29.4 93.8l6.4 11.2-12.9 0.7c-0.8 0-19.6 0.9-41.4-10.6-35.7-19-51.7-56.4-58.7-84.4-18.4-73.1-44.6-123.9-55.7-145.6-3.3-6.4-5.3-10.2-6.2-12.8-1.8-4.9-0.8-9.8 2.8-13 10.5-9.5 38.2 2.9 38.5 3 0.6 0.3 1.3 0.6 2.2 1 13.9 6.3 55.1 25 69.8 84.5h56.7c0.7-32.2 3.1-138.4 2.9-172.9h-141l-2.1-1.5c-23.1-16.9-30.5-63.2-30.8-65.2l-1.4-9.2h167c-12.3-78.3-26.5-113.4-34-127.4-3.7-7-7.3-14-10.7-20.8-21.3-42.2-43.4-85.8-126.3-153.6-3.6-2.8-7-8-4.8-13.7 2.4-6.3 9.3-9.1 24.6-9.1 5.4 0 11.8 0.3 19.4 1 49.9 4.4 100.8 18 135.1 87.6 17 35.1 31.7 71.7 43.9 108.9L497 46l5 12c0.8 1.9 19 46.3 5.1 95.9l-0.5 1.8-108.1 123-22-16.6c6.4 26.1 10.6 49.9 12.5 71.1h158.7v8c0 40.1-18.5 63.9-19.2 64.9l-2.4 3z"  horiz-adv-x="1024" />

    
    <glyph glyph-name="linkedin" unicode="&#59518;" d="M847.7 784H176.3c-35.5 0-64.3-28.8-64.3-64.3v-671.4c0-35.5 28.8-64.3 64.3-64.3h671.4c35.5 0 64.3 28.8 64.3 64.3V719.7c0 35.5-28.8 64.3-64.3 64.3z m0-736c-447.8 0.1-671.7 0.2-671.7 0.3 0.1 447.8 0.2 671.7 0.3 671.7 447.8-0.1 671.7-0.2 671.7-0.3-0.1-447.8-0.2-671.7-0.3-671.7zM230.6 484.1h118.7v-381.8H230.6zM290 536.3c37.9 0 68.8 30.8 68.8 68.8 0 37.9-30.8 68.8-68.8 68.8s-68.8-30.8-68.8-68.8c-0.1-38 30.7-68.8 68.8-68.8zM542.3 291.2c0 49.8 9.5 98 71.2 98 60.8 0 61.7-56.9 61.7-101.2v-185.7h118.6V311.7c0 102.8-22.2 181.9-142.3 181.9-57.7 0-96.4-31.7-112.3-61.7h-1.6v52.2H423.7v-381.8h118.6V291.2z"  horiz-adv-x="1024" />

    
    <glyph glyph-name="facebook" unicode="&#59519;" d="M880 784H144c-17.7 0-32-14.3-32-32v-736c0-17.7 14.3-32 32-32h736c17.7 0 32 14.3 32 32V752c0 17.7-14.3 32-32 32z m-32-736H663.9V293.8h104l15.6 120.7H663.9v77.1c0 35 9.7 58.8 59.8 58.8h63.9v108c-11.1 1.5-49 4.8-93.2 4.8-92.2 0-155.3-56.3-155.3-159.6v-89H434.9v-120.7h104.3V48H176V720h672v-672z"  horiz-adv-x="1024" />

    
    <glyph glyph-name="skype" unicode="&#59520;" d="M883.7 317.4c4.1 22.5 6.3 45.5 6.3 68.5 0 51-10 100.5-29.7 147-19 45-46.3 85.4-81 120.1-34.7 34.7-75.1 61.9-120.1 80.9-46.6 19.7-96 29.7-147 29.7-24 0-48.1-2.3-71.5-6.8-32.3 17.1-68.5 26.2-105.1 26.2-59.7 0-115.9-23.3-158.1-65.5-42.2-42.2-65.5-98.4-65.5-158.1 0-38 9.8-75.4 28.1-108.4-3.7-21.4-5.7-43.3-5.7-65.1 0-51 10-100.5 29.7-147 19-45 46.2-85.4 80.9-120.1 34.7-34.7 75.1-61.9 120.1-80.9 46.6-19.7 96-29.7 147-29.7 22.2 0 44.4 2 66.2 5.9 33.5-18.9 71.3-29 110-29 59.7 0 115.9 23.2 158.1 65.5 42.3 42.2 65.5 98.4 65.5 158.1 0.1 38-9.7 75.5-28.2 108.7z m-88.1-216C766.9 72.6 729 57 688.4 57c-26.1 0-51.8 6.8-74.6 19.7l-22.5 12.7-25.5-4.5c-17.8-3.2-35.8-4.8-53.6-4.8-41.4 0-81.3 8.1-119.1 24.1-36.3 15.3-69 37.3-97.2 65.5-28.1 28.1-50.1 60.7-65.5 97.1-16 37.7-24 77.6-24 119 0 17.4 1.6 35.2 4.6 52.8l4.4 25.1L203 486c-12.5 22.4-19.1 47.8-19.1 73.4 0 40.6 15.7 78.5 44.4 107.2C257.1 695.3 295 711 335.6 711c24.7 0 49.3-6.2 71.4-17.9l22.4-11.8 24.8 4.8c18.9 3.6 38.4 5.5 58 5.5 41.4 0 81.3-8.1 119-24 36.5-15.4 69.1-37.4 97.2-65.5 28.2-28.1 50.2-60.8 65.6-97.2 16-37.7 24-77.6 24-119 0-18.4-1.7-37-5.1-55.5l-4.7-25.5 12.6-22.6c12.6-22.5 19.2-48 19.2-73.7 0-40.7-15.7-78.5-44.4-107.2zM583.4 429.8L495 449.4c-33.6 7.7-72.3 17.8-72.3 49.5s27.1 53.9 76.1 53.9c98.7 0 89.7-67.8 138.7-67.8 25.8 0 48.4 15.2 48.4 41.2 0 60.8-97.4 106.5-180 106.5-89.7 0-185.2-38.1-185.2-139.5 0-48.8 17.4-100.8 113.6-124.9l119.4-29.8c36.1-8.9 45.2-29.2 45.2-47.6 0-30.5-30.3-60.3-85.2-60.3-107.2 0-92.3 82.5-149.7 82.5-25.8 0-44.5-17.8-44.5-43.1 0-49.4 60-115.4 194.2-115.4 127.7 0 191 61.5 191 144 0 53.1-24.5 109.6-121.3 131.2z"  horiz-adv-x="1024" />

    
    <glyph glyph-name="codesandbox" unicode="&#59521;" d="M709.6 686l0.4 0.2h0.2L512 800 313.9 686.2h-0.2l0.7-0.3L151.5 592v-416L512-32l360.5 208V592l-162.9 94zM482.7 52.39999999999998L339.6 135V274.6L210 348.20000000000005V523.1l272.7-157.3v-313.4zM238.2 574.5l134.7 77.8 138.9-79.7 139.1 79.9 135.2-78-273.9-158-274 158zM814 347.70000000000005l-128.8-73.1v-139.1l-143.9-83V365.6L814 522.9v-175.2z"  horiz-adv-x="1024" />

    
    <glyph glyph-name="codepen" unicode="&#59522;" d="M911.7 510.7l-0.3 1.5c-0.2 1-0.3 1.9-0.6 2.9-0.2 0.6-0.4 1.1-0.5 1.7-0.3 0.8-0.5 1.7-0.9 2.5-0.2 0.6-0.5 1.1-0.8 1.7-0.4 0.8-0.8 1.5-1.2 2.3-0.3 0.5-0.6 1.1-1 1.6-0.8 1.2-1.7 2.4-2.6 3.6-0.5 0.6-1.1 1.3-1.7 1.9-0.4 0.5-0.9 0.9-1.4 1.3-0.6 0.6-1.3 1.1-1.9 1.6-0.5 0.4-1 0.8-1.6 1.2-0.2 0.1-0.4 0.3-0.6 0.4L531.1 778.2c-11.5 7.7-26.6 7.7-38.1 0L127.3 534.7c-0.2-0.1-0.4-0.3-0.6-0.4-0.5-0.4-1-0.8-1.6-1.2-0.7-0.5-1.3-1.1-1.9-1.6-0.5-0.4-0.9-0.9-1.4-1.3-0.6-0.6-1.2-1.2-1.7-1.9-1-1.1-1.8-2.3-2.6-3.6-0.3-0.5-0.7-1-1-1.6-0.4-0.7-0.8-1.5-1.2-2.3-0.3-0.5-0.5-1.1-0.8-1.7-0.3-0.8-0.6-1.7-0.9-2.5-0.2-0.6-0.4-1.1-0.5-1.7-0.2-0.9-0.4-1.9-0.6-2.9l-0.3-1.5c-0.2-1.5-0.3-3-0.3-4.5v-243.5c0-1.5 0.1-3 0.3-4.5l0.3-1.5c0.2-1 0.4-1.9 0.6-2.9 0.2-0.6 0.3-1.1 0.5-1.7 0.3-0.9 0.6-1.7 0.9-2.5 0.2-0.6 0.5-1.1 0.8-1.7 0.4-0.8 0.7-1.5 1.2-2.3 0.3-0.5 0.6-1.1 1-1.6 0.5-0.7 0.9-1.4 1.5-2.1l1.2-1.5c0.5-0.6 1.1-1.3 1.7-1.9 0.4-0.5 0.9-0.9 1.4-1.3 0.6-0.6 1.3-1.1 1.9-1.6 0.5-0.4 1-0.8 1.6-1.2 0.2-0.1 0.4-0.3 0.6-0.4L493-9.7c5.6-3.8 12.3-5.8 19.1-5.8 6.6 0 13.3 1.9 19.1 5.8l365.6 243.5c0.2 0.1 0.4 0.3 0.6 0.4 0.5 0.4 1 0.8 1.6 1.2 0.7 0.5 1.3 1.1 1.9 1.6 0.5 0.4 0.9 0.9 1.4 1.3 0.6 0.6 1.2 1.2 1.7 1.9l1.2 1.5 1.5 2.1c0.3 0.5 0.7 1 1 1.6 0.4 0.8 0.8 1.5 1.2 2.3 0.3 0.5 0.5 1.1 0.8 1.7 0.3 0.8 0.6 1.7 0.9 2.5 0.2 0.5 0.4 1.1 0.5 1.7 0.3 0.9 0.4 1.9 0.6 2.9l0.3 1.5c0.2 1.5 0.3 3 0.3 4.5V506.2c-0.3 1.5-0.4 3-0.6 4.5zM546.4 685.5l269.4-179.4-120.3-80.4-149 99.6V685.5z m-68.8 0v-160.2l-149-99.6-120.3 80.4 269.3 179.4zM180.7 441.9l86-57.5-86-57.5v115z m296.9-358.5L208.3 262.8l120.3 80.4 149-99.6v-160.2zM512 303.2l-121.6 81.2L512 465.7l121.6-81.2L512 303.2z m34.4-219.8V243.6l149 99.6 120.3-80.4-269.3-179.4zM843.3 327l-86 57.5 86 57.5v-115z"  horiz-adv-x="1024" />

    
    <glyph glyph-name="sketch" unicode="&#59523;" d="M925.6 490.9l-203 253.7c-1.2 1.5-3.1 2.4-5 2.4H306.4c-1.9 0-3.8-0.9-5-2.4l-203-253.7c-1.9-2.4-1.9-5.9 0.2-8.3l408.6-459.5c1.2-1.4 3-2.1 4.8-2.1 1.8 0 3.5 0.8 4.8 2.1l408.6 459.5c2.1 2.4 2.1 5.9 0.2 8.3zM645.2 689.6l34.4-133.9-132.5 133.9h98.1z m8.2-178.5H370.6L512 654l141.4-142.9zM378.8 689.6h98.1L344.3 555.7l34.5 133.9z m-53.4-7l-44.1-171.5h-93.1l137.2 171.5zM194.6 461.1H289l125.8-247.7-220.2 247.7zM512 132.6L345.1 461.1h333.7L512 132.6z m97.1 80.8L735 461.1h94.4L609.1 213.4z m133.6 297.7l-44.1 171.5 137.2-171.5h-93.1z"  horiz-adv-x="1024" />

    
    <glyph glyph-name="gitlab" unicode="&#59524;" d="M913.9 343.79999999999995L805 714.6v0.1c-7.6 22.9-25.7 36.5-48.3 36.5-23.4 0-42.5-13.5-49.7-35.2l-71.4-213H388.8l-71.4 213c-7.2 21.7-26.3 35.2-49.7 35.2-23.1 0-42.5-14.8-48.4-36.6L110.5 343.79999999999995c-4.4-14.7 1.2-31.4 13.5-40.7l368.5-276.4c2.6-3.6 6.2-6.3 10.4-7.8l8.6-6.4 8.5 6.4c4.9 1.7 9 4.7 11.9 8.9l368.4 275.4c12.4 9.2 18 25.9 13.6 40.6zM751.7 702.6c1 1.8 2.9 1.9 3.5 1.9 1.1 0 2.5-0.3 3.4-3L818 501.7H684.5l67.2 200.9z m-487.4-1c0.9 2.6 2.3 2.9 3.4 2.9 2.7 0 2.9-0.1 3.4-1.7l67.3-201.2H206.5l57.8 200zM158.8 337.29999999999995l28.2 97.3 202.4-270.2-230.6 172.9z m73.9 116.4h122.1l90.8-284.3-212.9 284.3zM512.9 120L405.7 453.7H620L512.9 120z m157.9 333.7h119.5L580 172.89999999999998l90.8 280.8z m-40.7-293.9l207.3 276.7 29.5-99.2-236.8-177.5z"  horiz-adv-x="1024" />

    
    <glyph glyph-name="dribbble" unicode="&#59525;" d="M512 800C282.6 800 96 613.4 96 384s186.6-416 416-416 416 186.6 416 416S741.4 800 512 800z m275.1-191.8c49.5-60.5 79.5-137.5 80.2-221.4-11.7 2.5-129.2 26.3-247.4 11.4-2.5 6.1-5 12.2-7.6 18.3-7.4 17.3-15.3 34.6-23.6 51.5C720 521.7 779.6 598 787.1 608.2zM512 738.8c90.3 0 172.8-33.9 235.5-89.5-6.4-9.1-59.9-81-186.2-128.4-58.2 107-122.7 194.8-132.6 208 27.3 6.6 55.2 9.9 83.3 9.9zM360.9 705c9.4-12.8 72.9-100.9 131.7-205.5C326.4 455.4 180 456 164.1 456.2c23.1 110.3 97.4 201.9 196.8 248.8zM156.7 383.5c0 3.6 0.1 7.3 0.2 10.9 15.5-0.3 187.7-2.5 365.2 50.6 10.2-19.9 19.9-40.1 28.8-60.3-4.7-1.3-9.4-2.7-14-4.2C353.6 321.1 256.1 159.6 248 145.9c-56.7 63-91.3 146.3-91.3 237.6zM512 28.2c-82.2 0-157.9 28-218.1 75 6.4 13.1 78.3 152 278.7 221.9l2.3 0.8c49.9-129.6 70.5-238.3 75.8-269.5-42.6-18.2-89.5-28.3-138.7-28.2z m198.5 60.7c-3.6 21.6-22.5 125.6-69 253.3C752.9 360 850.7 330.8 862.8 327c-15.8-98.8-72.5-184.2-152.3-238.1z"  horiz-adv-x="1024" />

    
    <glyph glyph-name="instagram" unicode="&#59526;" d="M512 589.1c-113.5 0-205.1-91.6-205.1-205.1S398.5 178.9 512 178.9 717.1 270.5 717.1 384 625.5 589.1 512 589.1z m0-338.4c-73.4 0-133.3 59.9-133.3 133.3S438.6 517.3 512 517.3 645.3 457.4 645.3 384 585.4 250.7 512 250.7zM725.5 645.3c-26.5 0-47.9-21.4-47.9-47.9s21.4-47.9 47.9-47.9 47.9 21.3 47.9 47.9c-0.1 26.6-21.4 47.9-47.9 47.9zM911.8 384c0 55.2 0.5 109.9-2.6 165-3.1 64-17.7 120.8-64.5 167.6-46.9 46.9-103.6 61.4-167.6 64.5-55.2 3.1-109.9 2.6-165 2.6-55.2 0-109.9 0.5-165-2.6-64-3.1-120.8-17.7-167.6-64.5C132.6 669.7 118.1 613 115 549c-3.1-55.2-2.6-109.9-2.6-165s-0.5-109.9 2.6-165c3.1-64 17.7-120.8 64.5-167.6 46.9-46.9 103.6-61.4 167.6-64.5 55.2-3.1 109.9-2.6 165-2.6 55.2 0 109.9-0.5 165 2.6 64 3.1 120.8 17.7 167.6 64.5 46.9 46.9 61.4 103.6 64.5 167.6 3.2 55.1 2.6 109.8 2.6 165z m-88-235.8c-7.3-18.2-16.1-31.8-30.2-45.8-14.1-14.1-27.6-22.9-45.8-30.2C695.2 51.3 570.3 56 512 56c-58.3 0-183.3-4.7-235.9 16.1-18.2 7.3-31.8 16.1-45.8 30.2-14.1 14.1-22.9 27.6-30.2 45.8C179.3 200.8 184 325.7 184 384c0 58.3-4.7 183.3 16.1 235.9 7.3 18.2 16.1 31.8 30.2 45.8s27.6 22.9 45.8 30.2C328.7 716.7 453.7 712 512 712s183.3 4.7 235.9-16.1c18.2-7.3 31.8-16.1 45.8-30.2 14.1-14.1 22.9-27.6 30.2-45.8C844.7 567.3 840 442.3 840 384c0-58.3 4.7-183.2-16.2-235.8z"  horiz-adv-x="1024" />

    
    <glyph glyph-name="reddit" unicode="&#59527;" d="M344 328m-56 0a56 56 0 1 1 112 0 56 56 0 1 1-112 0ZM626.7 208.3c-23.1-18.2-68.9-37.8-114.7-37.8s-91.6 19.6-114.7 37.8c-14.4 11.3-35.3 8.9-46.7-5.5s-8.9-35.3 5.5-46.7C396.3 124.4 457.5 104 512 104s115.7 20.4 155.9 52.1c14.4 11.4 16.9 32.3 5.5 46.7-11.3 14.4-32.3 16.9-46.7 5.5zM960 440c0 61.9-50.1 112-112 112-42.1 0-78.7-23.2-97.9-57.6-57.6 31.5-127.7 51.8-204.1 56.5L612.9 701l127.9-36.9c11.5-32.6 42.6-56.1 79.2-56.1 46.4 0 84 37.6 84 84s-37.6 84-84 84c-32 0-59.8-17.9-74-44.2L603.5 773c-16 4.6-32.8-3.2-39.6-18.4l-90.8-203.9c-74.5-5.2-142.9-25.4-199.2-56.2-19.1 34.3-55.8 57.5-97.9 57.5-61.9 0-112-50.1-112-112 0-45.8 27.5-85.1 66.8-102.5-7.1-21-10.8-43-10.8-65.5 0-154.6 175.5-280 392-280s392 125.4 392 280c0 22.6-3.8 44.5-10.8 65.5C932.5 354.9 960 394.2 960 440zM820 723.5c17.4 0 31.5-14.1 31.5-31.5s-14.1-31.5-31.5-31.5-31.5 14.1-31.5 31.5 14.1 31.5 31.5 31.5zM120 440c0 30.9 25.1 56 56 56 22.3 0 41.6-13.1 50.6-32.1-29.3-22.2-53.5-47.8-71.5-75.9-20.5 8.3-35.1 28.5-35.1 52z m392-381.5c-179.8 0-325.5 95.6-325.5 213.5S332.2 485.5 512 485.5 837.5 389.9 837.5 272 691.8 58.5 512 58.5zM868.8 388c-17.9 28.1-42.2 53.7-71.5 75.9 9 18.9 28.3 32.1 50.6 32.1 30.9 0 56-25.1 56-56 0.1-23.5-14.5-43.7-35.1-52zM680 328m-56 0a56 56 0 1 1 112 0 56 56 0 1 1-112 0Z"  horiz-adv-x="1024" />

    
    <glyph glyph-name="youtube" unicode="&#59528;" d="M960 386.8c0 2.2 0 4.7-0.1 7.6-0.1 8.1-0.3 17.2-0.5 26.9-0.8 27.9-2.2 55.7-4.4 81.9-3 36.1-7.4 66.2-13.4 88.8-12.8 47.9-50.4 85.6-98.3 98.5-28.3 7.6-83.7 12.3-161.7 15.2-37.1 1.4-76.8 2.3-116.5 2.8-13.9 0.2-26.8 0.3-38.4 0.4H497.3c-11.6-0.1-24.5-0.2-38.4-0.4-39.7-0.5-79.4-1.4-116.5-2.8-78-3-133.5-7.7-161.7-15.2-47.8-12.8-85.5-50.5-98.3-98.5-6.1-22.6-10.4-52.7-13.4-88.8-2.2-26.2-3.6-54-4.4-81.9-0.3-9.7-0.4-18.8-0.5-26.9 0-2.9-0.1-5.4-0.1-7.6v-5.6c0-2.2 0-4.7 0.1-7.6 0.1-8.1 0.3-17.2 0.5-26.9 0.8-27.9 2.2-55.7 4.4-81.9 3-36.1 7.4-66.2 13.4-88.8 12.8-47.9 50.4-85.7 98.3-98.5 28.2-7.6 83.7-12.3 161.7-15.2 37.1-1.4 76.8-2.3 116.5-2.8 13.9-0.2 26.8-0.3 38.4-0.4H526.7c11.6 0.1 24.5 0.2 38.4 0.4 39.7 0.5 79.4 1.4 116.5 2.8 78 3 133.5 7.7 161.7 15.2 47.9 12.8 85.5 50.5 98.3 98.5 6.1 22.6 10.4 52.7 13.4 88.8 2.2 26.2 3.6 54 4.4 81.9 0.3 9.7 0.4 18.8 0.5 26.9 0 2.9 0.1 5.4 0.1 7.6V384v2.8z m-72-5.2c0-2.1 0-4.4-0.1-7.1-0.1-7.8-0.3-16.4-0.5-25.7-0.7-26.6-2.1-53.2-4.2-77.9-2.7-32.2-6.5-58.6-11.2-76.3-6.2-23.1-24.4-41.4-47.4-47.5-21-5.6-73.9-10.1-145.8-12.8-36.4-1.4-75.6-2.3-114.7-2.8-13.7-0.2-26.4-0.3-37.8-0.3h-28.6c-11.4 0.1-24.1 0.2-37.8 0.3-39.1 0.5-78.2 1.4-114.7 2.8-71.9 2.8-124.9 7.2-145.8 12.8-23 6.2-41.2 24.4-47.4 47.5-4.7 17.7-8.5 44.1-11.2 76.3-2.1 24.7-3.4 51.3-4.2 77.9-0.3 9.3-0.4 18-0.5 25.7 0 2.7-0.1 5.1-0.1 7.1v3 1.8c0 2.1 0 4.4 0.1 7.1 0.1 7.8 0.3 16.4 0.5 25.7 0.7 26.6 2.1 53.2 4.2 77.9 2.7 32.2 6.5 58.6 11.2 76.3 6.2 23.1 24.4 41.4 47.4 47.5 21 5.6 73.9 10.1 145.8 12.8 36.4 1.4 75.6 2.3 114.7 2.8 13.7 0.2 26.4 0.3 37.8 0.3h28.6c11.4-0.1 24.1-0.2 37.8-0.3 39.1-0.5 78.2-1.4 114.7-2.8 71.9-2.8 124.9-7.2 145.8-12.8 23-6.2 41.2-24.4 47.4-47.5 4.7-17.7 8.5-44.1 11.2-76.3 2.1-24.7 3.4-51.3 4.2-77.9 0.3-9.3 0.4-18 0.5-25.7 0-2.7 0.1-5.1 0.1-7.1v-4.8zM423 250l232 135-232 133z"  horiz-adv-x="1024" />

    
    <glyph glyph-name="qq" unicode="&#59529;" d="M824.8 282.79999999999995c-16 51.4-34.4 94.6-62.7 165.3C766.5 633.8 689.3 784 511.5 784 331.7 784 256.2 630.8 261 448.1c-28.4-70.8-46.7-113.7-62.7-165.3-34-109.5-23-154.8-14.6-155.8 18-2.2 70.1 82.4 70.1 82.4 0-49 25.2-112.9 79.8-159-26.4-8.1-85.7-29.9-71.6-53.8 11.4-19.3 196.2-12.3 249.5-6.3 53.3-6 238.1-13 249.5 6.3 14.1 23.8-45.3 45.7-71.6 53.8 54.6 46.2 79.8 110.1 79.8 159 0 0 52.1-84.6 70.1-82.4 8.5 1.1 19.5 46.4-14.5 155.8z"  horiz-adv-x="1024" />

    
    <glyph glyph-name="twitter" unicode="&#59530;" d="M928 641.7c-30.6-13.2-63.9-22.7-98.2-26.4 35.4 21.1 62.3 54.4 75 94-32.7-19.5-69.7-33.8-108.2-41.2C765.4 701.4 721.1 722 672 722c-94.5 0-170.5-76.6-170.5-170.6 0-13.2 1.6-26.4 4.2-39.1-141.5 7.4-267.7 75-351.6 178.5-14.8-25.4-23.2-54.4-23.2-86.1 0-59.2 30.1-111.4 76-142.1-28 1.1-54.4 9-77.1 21.7v-2.1c0-82.9 58.6-151.6 136.7-167.4-14.3-3.7-29.6-5.8-44.9-5.8-11.1 0-21.6 1.1-32.2 2.6C211 244 273.9 194.9 348.8 193.3c-58.6-45.9-132-72.9-211.7-72.9-14.3 0-27.5 0.5-41.2 2.1C171.5 74 261.2 46 357.8 46 671.4 46 843 305.8 843 531.3c0 7.4 0 14.8-0.5 22.2 33.2 24.3 62.3 54.4 85.5 88.2z"  horiz-adv-x="1024" />

    
    <glyph glyph-name="weibo" unicode="&#59531;" d="M457.3 353c-68.1 17.7-145-16.2-174.6-76.2-30.1-61.2-1-129.1 67.8-151.3 71.2-23 155.2 12.2 184.4 78.3 28.7 64.6-7.2 131-77.6 149.2z m-52-156.2c-13.8-22.1-43.5-31.7-65.8-21.6-22 10-28.5 35.7-14.6 57.2 13.7 21.4 42.3 31 64.4 21.7 22.4-9.5 29.6-35 16-57.3z m45.5 58.5c-5-8.6-16.1-12.7-24.7-9.1-8.5 3.5-11.2 13.1-6.4 21.5 5 8.4 15.6 12.4 24.1 9.1 8.7-3.2 11.8-12.9 7-21.5zM785.3 452.5c15-4.8 31 3.4 35.9 18.3 11.8 36.6 4.4 78.4-23.2 109-27.6 30.6-68.4 42.3-106 34.3-15.4-3.3-25.2-18.4-21.9-33.8 3.3-15.3 18.4-25.2 33.8-21.8 18.4 3.9 38.3-1.8 51.9-16.7 13.5-15 17.2-35.4 11.3-53.3-4.9-15.1 3.2-31.1 18.2-36zM885.1 658.5c-56.7 62.9-140.4 86.9-217.7 70.5-17.9-3.8-29.3-21.4-25.4-39.3 3.8-17.9 21.4-29.3 39.3-25.5 55 11.7 114.4-5.4 154.8-50.1 40.3-44.7 51.2-105.7 34-159.1-5.6-17.4 3.9-36 21.3-41.7 17.4-5.6 36 3.9 41.6 21.2v0.1c24.1 75.4 8.9 161.1-47.9 223.9zM729 397c-12.2 3.6-20.5 6.1-14.1 22.1 13.8 34.7 15.2 64.7 0.3 86-28 40.1-104.8 37.9-192.8 1.1 0 0-27.6-12.1-20.6 9.8 13.5 43.5 11.5 79.9-9.6 101-47.7 47.8-174.6-1.8-283.5-110.6C127.3 424.9 80 338.5 80 263.8 80 120.9 263.2 34 442.5 34c235 0 391.3 136.5 391.3 245 0 65.5-55.2 102.6-104.8 118zM443 85.2c-143-14.1-266.5 50.5-275.8 144.5-9.3 93.9 99.2 181.5 242.2 195.6 143 14.2 266.5-50.5 275.8-144.4C694.4 187 586 99.4 443 85.2z"  horiz-adv-x="1024" />

    
    <glyph glyph-name="wechat" unicode="&#59532;" d="M690.1 518.6c5.9 0 11.8-0.2 17.6-0.5-24.4 128.7-158.3 227.1-319.9 227.1C209 745.2 64 624.6 64 475.8c0-81.1 43.6-154.2 111.9-203.6 5.5-3.9 9.1-10.3 9.1-17.6 0-2.4-0.5-4.6-1.1-6.9-5.5-20.3-14.2-52.8-14.6-54.3-0.7-2.6-1.7-5.2-1.7-7.9 0-5.9 4.8-10.8 10.8-10.8 2.3 0 4.2 0.9 6.2 2l70.9 40.9c5.3 3.1 11 5 17.2 5 3.2 0 6.4-0.5 9.5-1.4 33.1-9.5 68.8-14.8 105.7-14.8 6 0 11.9 0.1 17.8 0.4-7.1 21-10.9 43.1-10.9 66 0 135.8 132.2 245.8 295.3 245.8z m-194.3 86.5c23.8 0 43.2-19.3 43.2-43.1s-19.3-43.1-43.2-43.1c-23.8 0-43.2 19.3-43.2 43.1s19.4 43.1 43.2 43.1z m-215.9-86.2c-23.8 0-43.2 19.3-43.2 43.1s19.3 43.1 43.2 43.1 43.2-19.3 43.2-43.1-19.4-43.1-43.2-43.1zM866.7 103.29999999999995c56.9 41.2 93.2 102 93.2 169.7 0 124-120.8 224.5-269.9 224.5-149 0-269.9-100.5-269.9-224.5S540.9 48.5 690 48.5c30.8 0 60.6 4.4 88.1 12.3 2.6 0.8 5.2 1.2 7.9 1.2 5.2 0 9.9-1.6 14.3-4.1l59.1-34c1.7-1 3.3-1.7 5.2-1.7 2.4 0 4.7 0.9 6.4 2.6 1.7 1.7 2.6 4 2.6 6.4 0 2.2-0.9 4.4-1.4 6.6-0.3 1.2-7.6 28.3-12.2 45.3-0.5 1.9-0.9 3.8-0.9 5.7 0.1 5.9 3.1 11.2 7.6 14.5zM600.2 308.79999999999995c-19.9 0-36 16.1-36 35.9 0 19.8 16.1 35.9 36 35.9s36-16.1 36-35.9c0-19.8-16.2-35.9-36-35.9z m179.9 0c-19.9 0-36 16.1-36 35.9 0 19.8 16.1 35.9 36 35.9s36-16.1 36-35.9c-0.1-19.8-16.2-35.9-36-35.9z"  horiz-adv-x="1024" />

    
    <glyph glyph-name="github" unicode="&#59533;" d="M511.6 819.7C264.3 819.8 64 619.6 64 372.5 64 177.10000000000002 189.3 11 363.8-50c23.5-5.9 19.9 10.8 19.9 22.2v77.5c-135.7-15.9-141.2 73.9-150.3 88.9C215 170 171.5 178 184.5 193c30.9 15.9 62.4-4 98.9-57.9 26.4-39.1 77.9-32.5 104-26 5.7 23.5 17.9 44.5 34.7 60.8-140.6 25.2-199.2 111-199.2 213 0 49.5 16.3 95 48.3 131.7-20.4 60.5 1.9 112.3 4.9 120 58.1 5.2 118.5-41.6 123.2-45.3 33 8.9 70.7 13.6 112.9 13.6 42.4 0 80.2-4.9 113.5-13.9 11.3 8.6 67.3 48.8 121.3 43.9 2.9-7.7 24.7-58.3 5.5-118 32.4-36.8 48.9-82.7 48.9-132.3 0-102.2-59-188.1-200-212.9 23.5-23.2 38.1-55.4 38.1-91v-112.5c0.8-9 0-17.9 15-17.9 177.1 59.7 304.6 227 304.6 424.1 0 247.2-200.4 447.3-447.5 447.3z"  horiz-adv-x="1024" />

    


  </font>
</defs>
</svg>
